The Queens of Comedy 2001 iNTERNAL DVDRip x264-MARS[rarbg]


    Seeders : 0      Leechers : 0

Hash :5BE6993489375356A8C0CC6D52ABD2EB57B28763
Added :1 Year+ in Movies
Size :763.87 MB
Stream :Watch Full Movie Online @ Movie4u
Share :








Warning! Do not Download Torrents Without a VPN!
Your IP Address is 185.162.9.168.   And Location is Netherlands, Naaldwijk
Your Internet Provider and Government can track your torrent Activity!  Hide your IP ADDRESS with a VPN!
We Strongly Recommend Using Best Cheapest VPN to Anonymize your Torrenting.

Note :

Please Update (Trackers Info) Before Start Torrents Downloading to See Updated Seeders And Leechers for Batter Download Speed.

Trackers List

Tracker NameLast CheckStatusSeedersLeechers




Torrent File Content (5 files)


The.Queens.of.Comedy.2001.iNTERNAL.DVDRip.x264-MARS[rarbg]
     RARBG.com.txt -
34 bytes

    Subs
          The.Queens.of.Comedy.2001.iNTERNAL.DVDRip.x264-MARS.idx -
82.65 KB

          The.Queens.of.Comedy.2001.iNTERNAL.DVDRip.x264-MARS.sub -
5.4 MB

     The.Queens.of.Comedy.2001.iNTERNAL.DVDRip.x264-MARS.mkv -
758.38 MB

     the.queens.of.comedy.2001.internal.dvdrip.x264-mars.nfo -
2.97 KB



Description



 							 CLICK ON IMAGES/LINKS TO ZOOM/FULLVIEW
SCREENSHOTS:

image






USE MAGNET LINK, IF DOWNLOAD BUTTON DOESN'T WORK



/ __) (___

/ ____ ____)

Proudly Presents

Release Name .....: The.Queens.of.Comedy.2001.iNTERNAL.DVDRip.x264-MARS

Title ............: The Queens of Comedy
URL ..............: http://www.imdb.com/title/tt0279353
Runtime ..........: 1h 19mn
Language .........: English 2ch AAC LC @ 132.3 Kb/s
VobSubs .........: English
File Size ........: 758.4 MiB
Video ............: 23.976 fps x264 628x478 @ CRF 21 (1.2 Mb/s)

Notes

Consider this a rerip of Queens.of.Comedy.2001.iNTERNAL.DVDRip.XviD-PHOBOS . We
restored to 23.9 this time. Result is still not perfect, but naturally better than
before. VOB sample included in case you consider being able to do better

Summary

Four African American women, profane and brassy, bring stand-up comedy to the
Orpheum Theater in Memphis, Tennessee. Miss Laura Hayes opens the show and serves as
emcee. She tells family stories about her grandkids, her mom, and her sisters. Adele
Givens urges her audience to celebrate its flaws; she comments on this crazy world,
her 92-year-old grandmother, and the need to take care when naming a baby. Sommore,
recently released from jail, talks about kids, men, marriage, and why moms give
their 8-year-old daughters a hula hoop. Last, Mo'Nique celebrates big women,
contrasts Blacks and whites, and gives advice about . The film also cuts away to
footage of the Queens on the town having fun.

Group Info

Our mission is to provide the scene with decent quality rips of old classics.

Greets fly out to ARCHiViST, GERUDO, INQUISITION, RedBlade, REWARD, and everyone
that helped us; you know who you guys are!

Looking for decent affil sites (no rented/colo) and rippers/cappers.

Ask around for us.

[-] Hide MediaInfo

Video
ID : 1
Format : AVC
Format/Info : Advanced Video Codec
Format profile : [email protected]
Format settings, CABAC : Yes
Format settings, ReFrames : 5 frames
Codec ID : V_MPEG4/ISO/AVC
Duration : 1h 19mn
Bit rate : 1 203 Kbps
Width : 628 pixels
Height : 478 pixels
Display aspect ratio : 4:3
Frame rate mode : Constant
Frame rate : 23.976 (24000/1001) fps
Color space : YUV
Chroma subsampling : 4:2:0
Bit depth : 8 bits
Scan type : Progressive
Bits/(Pixel*Frame) : 0.167
Stream size : 681 MiB (90%)
Writing library : x264 core 148 r2665 a01e339
Encoding settings : cabac=1 / ref=5 / deblock=1:0:0 / analyse=0x3:0x113 / me=umh / subme=8 / psy=1 / psy_rd=1.00:0.00 / mixed_ref=1 / me_range=16 / chroma_me=1 / trellis=1 / 8x8dct=1 / cqm=0 / deadzone=21,11 / fast_pskip=1 / chroma_qp_offset=-2 / threads=12 / lookahead_threads=2 / sliced_threads=0 / nr=0 / decimate=1 / interlaced=0 / bluray_compat=0 / constrained_intra=0 / bframes=3 / b_pyramid=2 / b_adapt=2 / b_bias=0 / direct=3 / weightb=1 / open_gop=0 / weightp=2 / keyint=240 / keyint_min=23 / scenecut=40 / intra_refresh=0 / rc_lookahead=50 / rc=crf / mbtree=1 / crf=21.0 / qcomp=0.60 / qpmin=0 / qpmax=69 / qpstep=4 / vbv_maxrate=17500 / vbv_bufsize=17500 / crf_max=0.0 / nal_hrd=none / filler=0 / ip_ratio=1.40 / aq=1:1.00
Default : Yes
Forced : No

Audio
ID : 2
Format : AAC
Format/Info : Advanced Audio Codec
Format profile : LC
Codec ID : A_AAC
Duration : 1h 19mn
Bit rate : 132 Kbps
Channel(s) : 2 channels
Channel positions : Front: L R
Sampling rate : 48.0 KHz
Frame rate : 46.875 fps (1024 spf)
Compression mode : Lossy
Delay relative to video : 20ms
Stream size : 75.9 MiB (10%)
Language : English
Default : Yes
Forced : No



Trailer: Play trailer
The.Queens.of.Comedy.2001.iNTERNAL.DVDRip.x264-MARS http://imdb.com/title/tt0279353/
Rating:
Currently 0.00/512345
Rating: 0.0/5 (0 votes cast)

Category: Movies/x264
Size: 763.87 MB
Show/Hide Files:
File Name Size
RARBG.com.txt 0.03 KB
Subs/The.Queens.of.Comedy.2001.iNTERNAL.DVDRip.x264-MARS.idx 82.65 KB
Subs/The.Queens.of.Comedy.2001.iNTERNAL.DVDRip.x264-MARS.sub 5.40 MB
The.Queens.of.Comedy.2001.iNTERNAL.DVDRip.x264-MARS.mkv 758.38 MB
the.queens.of.comedy.2001.internal.dvdrip.x264-mars.nfo 2.97 KB
Added: 2016-04-13 14:30:49
Title: The Queens of Comedy (Video 2001)
IMDB Rating: 6.5/10 from 401 users Updated : 2016-04-13
Genres: Documentary , Comedy
Actors: Adele Givens , Laura Hayes , Mo'Nique , Sommore
Director: Steve Purcell
Runtime: 79
Year: 2001
Plot: Four African American women| profane and brassy| bring stand-up comedy to the Orpheum Theater in Memphis| Tennessee. Miss Laura Hayes opens the show and serves as
emcee. She tells family stories about her grandkids| her mom| and her sisters. Adele Givens urges her audience to celebrate its flaws; she comments on this crazy
world| her 92-year-old grandmother| and the need to take care when naming a baby. Sommore| recently released from jail| talks about kids| men| marriage| and why moms
give their 8-year-old daughters a hula hoop. Last| Mo'Nique celebrates big women| contrasts Blacks and whites| and gives advice about . The film also cuts away to
footage of the Queens on the town having fun.

Related torrents

Torrent NameAddedSizeSeedLeechHealth
11 months ago - in Other769.48 MB00
1 Year+ - in Movies1.41 GB146
1 Year+ - in Movies800.28 MB1415
1 Year+ - in Movies1.45 GB2011
1 Year+ - in Movies697.61 MB161

Note :

Feel free to post any comments about this torrent, including links to Subtitle, samples, screenshots, or any other relevant information. Please Dont Download anything from Comments, And Links to Streaming Sites like Watch Online The Queens of Comedy 2001 iNTERNAL DVDRip x264-MARS[rarbg] Full Movie, Fmovies, 123Movies, Putlocker, Netflix, etc.

Comments (0 Comments)




Please login or create a FREE account to post comments

Latest Searches

Sitemap